1. MINIX team will be having Chinese Lunar New Year holidays from 23/01 to 05/02, replies will be limited during this period, please kindly note.

Bugtracker for NEO U1 FW010

Discussion in 'Official Firmwares' started by MINIX - Ken, Oct 26, 2016.

  1. MINIX - Ken

    MINIX - Ken MINIX Team Member Administrator

    Dear all,

    Please feel free to report any problems found on FW010 (20161012),

    for users without rooting their device ONLY.

    Regards,
    Team MINIX.
    skynet, Villa, carlos3210 and 2 others like this.
  2. klastes

    klastes New Member

    There is no polish layout for physical keyboard. Could you add ?
  3. d4n24

    d4n24 Member

    With new firmware vip tv to go app has blurry subtitles, and picture is lower quality (like lower revolution then on F009A).
    Tested for 2 days, and it started with new firmware.
    Not big deal, just let you know
  4. Armando Barradas

    Armando Barradas New Member

    Kodi became very slow with this firmware, when it comes to loading addon contents, like on exodus now it takes forever to load covers for movies, and video stutters ocasionaly. All this was fine until yesterday when i updated from v9 to v10
  5. d4n24

    d4n24 Member

    Try clear cache (power off, 6 sec power buton and clear cache)
    Armando Barradas likes this.
  6. Armando Barradas

    Armando Barradas New Member

    Thanks d4n24, that solved it!
  7. cfraser

    cfraser Member

    It may not be a bad idea for "clear system cache" to be part of Ken's update instructions (besides his more specific cache rec). For those of us who are noobs and might not automatically know or think to do this. It solved all of my minor issues anyway, so I deleted my initial "bug report" here.
    Emanuell Hitardo likes this.
  8. Villa

    Villa Trusted Helper Super Moderator

    The thing is, is that this is supposed to happen automatically during/after the update!
    DutchDiversion likes this.
  9. jarul777

    jarul777 New Member

    After the update many files that were playing well are not playable in Kodi. Kodi displays black screen under menu and whole device freezes that I have to plug off the power cable. Also there is problem with FPS switching that I didn't encounter before. I updated via OTA, update pass normally but something went wrong. Or maybe i did something wrong but I don't see space for that.
  10. MINIX - Ken

    MINIX - Ken MINIX Team Member Administrator

    Yes it should be.
  11. MINIX - Ken

    MINIX - Ken MINIX Team Member Administrator

    Go wipe the cache, if it doesn't work, probably you have to reflash the firmware.
  12. jarul777

    jarul777 New Member

    I've wiped the cache before writing here and nothing changes. Looks like I have to reflash.
  13. cfraser

    cfraser Member

    I don't know why, but I and some others had to do it again, and that fixed the probs. I could see that my cache was quite large at the time...unexpected.
  14. frutiloopis

    frutiloopis Member

    [​IMG]

    I update my box U1 to the firmware on version 20161012 and the native browser disappear and have only google chrome. How can I get the native browser ?


    Enviado desde mi iPhone utilizando Tapatalk
  15. newbie99

    newbie99 Moderator Moderator

    I don't think so because of
    and better explained at 010Beta
  16. Villa

    Villa Trusted Helper Super Moderator

  17. klastes

    klastes New Member

    What about lack of polish layout for physical keyboard. Is there any solutıon
  18. amel

    amel New Member

    After this update I have once a day lost signal for 5 sec. Then comes back on Samsung curved TV 65" previous realise where fine.
  19. datrh

    datrh Member

    hi,

    these kind of old avi doesn't play smooth but it's not a big deal.
    it's just for info.
    regards

    Format : AVI
    Format/Info : Audio Video Interleave
    File size : 351 MiB
    Duration : 42mn 19s
    Overall bit rate mode : Variable
    Overall bit rate : 1 159 Kbps
    Writing library : VirtualDub build 32839/release

    Video
    ID : 0
    Format : MPEG-4 Visual
    Format profile : Advanced Simple@L5
    Format settings, BVOP : 2
    Format settings, QPel : No
    Format settings, GMC : No warppoints
    Format settings, Matrix : Default (H.263)
    Codec ID : XVID
    Codec ID/Hint : XviD
    Duration : 42mn 19s
    Bit rate : 1 007 Kbps
    Width : 624 pixels
    Height : 352 pixels
    Display aspect ratio : 16:9
    Frame rate : 23.976 (24000/1001) fps
    Color space : YUV
    Chroma subsampling : 4:2:0
    Bit depth : 8 bits
    Scan type : Progressive
    Compression mode : Lossy
    Bits/(Pixel*Frame) : 0.191
    Stream size : 305 MiB (87%)
    Writing library : XviD 61

    Audio
    ID : 1
    Format : MPEG Audio
    Format version : Version 1
    Format profile : Layer 3
    Mode : Joint stereo
    Mode extension : MS Stereo
    Codec ID : 55
    Codec ID/Hint : MP3
    Duration : 42mn 19s
    Bit rate mode : Variable
    Bit rate : 140 Kbps
    Minimum bit rate : 32.0 Kbps
    Channel(s) : 2 channels
    Sampling rate : 48.0 KHz
    Compression mode : Lossy
    Stream size : 42.3 MiB (12%)
    Alignment : Aligned on interleaves
    Interleave, duration : 24 ms (0.58 video frame)
    Interleave, preload duration : 132 ms
    Writing library : LAME3.98r
    Encoding settings : -m j -V 4 -q 0 -lowpass 17.5 --vbr-new -b 32
  20. SaEt9000

    SaEt9000 Member